Tito Puente - Dance Mania! Vol 2 (Remastered) (2009/2019) [Official Digital Download]

Posted By: Pisulik
Tito Puente - Dance Mania! Vol 2 (Remastered) (2009/2019) [Official Digital Download]

Tito Puente - Dance Mania! Vol 2 (Remastered) (2009/2019)
FLAC (tracks) 24-bit/44.1 kHz | Time - 65:29 minutes | 705 MB
Studio Master, Official Digital Download | Artwork: Front cover

Ernesto Antonio "Tito" Puente was an American musician, songwriter and record producer. The son of Ernest and Ercilia Puente, native Puerto Ricans living in New York City's Spanish Harlem, Puente is often credited as "The Musical Pope", "El Rey de los Timbales" (The King of the Timbales) and "The King of Latin Music". He is best known for dance-oriented mambo and Latin jazz compositions that endured over a 50-year career. He and his music appear in many films such as The Mambo Kings and Fernando Trueba's Calle 54. He guest-starred on several television shows, including Sesame Street and The Simpsons two-part episode "Who Shot Mr. Burns?". His most famous song is "Oye Como Va".

Tracklist:

01. A Gozar Timbero (Remastered)
02. Si Te Contara (Remastered)
03. Separala Tambien (Remastered)
04. Caonao (Remastered)
05. Una Mujer (Remastered)
06. Baila Como Es (Remastered)
07. Dance Mania (Remastered)
08. Porque Te Perdi (Remastered)
09. Guancona (Remastered)
10. Son Guacha (Remastered)
11. Con Sandunga (Remastered)
12. Cua Cua (Remastered)
13. Si Te Contara (Outtake Version Remastered)
14. A Gozar Timbero (Outtake Version Remastered)
15. Una Mujer (Outtake Version Remastered)
16. Chanchullo (Remastered)
17. Guaguanco (Remastered)
18. Cha-Con-Cha (Remastered)
19. El Bajo (Remastered)
20. Suave Asi (Remastered)
21. Cha Cha Son (Remastered)
22. Delisse (Remastered)
23. El Palo (Remastered)

foobar2000 1.3.7 / Dynamic Range Meter 1.1.1
log date: 2019-01-06 02:50:27

––––––––––––––––––––––––––––––––––––––––
Analyzed: Tito Puente And His Orchestra / Dance Mania! Vol 2 (Remastered)
––––––––––––––––––––––––––––––––––––––––

DR Peak RMS Duration Track
––––––––––––––––––––––––––––––––––––––––
DR12 -6.25 dB -19.68 dB 3:05 01-A Gozar Timbero (Remastered)
DR10 -6.24 dB -18.47 dB 2:54 02-Si Te Contara (Remastered)
DR9 -6.61 dB -17.30 dB 3:14 03-Separala Tambien (Remastered)
DR10 -5.59 dB -18.29 dB 2:32 04-Caonao (Remastered)
DR11 -5.04 dB -19.80 dB 2:26 05-Una Mujer (Remastered)
DR8 -6.11 dB -16.49 dB 2:49 06-Baila Como Es (Remastered)
DR9 -4.90 dB -15.96 dB 3:14 07-Dance Mania (Remastered)
DR10 -5.13 dB -19.50 dB 2:01 08-Porque Te Perdi (Remastered)
DR11 -6.36 dB -18.89 dB 2:41 09-Guancona (Remastered)
DR10 -6.73 dB -19.60 dB 2:42 10-Son Guacha (Remastered)
DR10 -6.47 dB -18.49 dB 3:07 11-Con Sandunga (Remastered)
DR9 -6.23 dB -17.14 dB 3:03 12-Cua Cua (Remastered)
DR11 -6.92 dB -20.86 dB 2:45 13-Si Te Contara (Outtake Version Remastered)
DR12 -5.95 dB -20.60 dB 3:07 14-A Gozar Timbero (Outtake Version Remastered)
DR12 -6.44 dB -21.79 dB 3:47 15-Una Mujer (Outtake Version Remastered)
DR10 -5.51 dB -17.43 dB 2:30 16-Chanchullo (Remastered)
DR12 -6.19 dB -19.90 dB 2:32 17-Guaguanco (Remastered)
DR10 -6.05 dB -17.23 dB 3:04 18-Cha-Con-Cha (Remastered)
DR9 -4.39 dB -17.13 dB 3:19 19-El Bajo (Remastered)
DR9 -4.84 dB -16.16 dB 2:31 20-Suave Asi (Remastered)
DR9 -4.38 dB -15.66 dB 3:04 21-Cha Cha Son (Remastered)
DR9 -5.11 dB -16.71 dB 2:15 22-Delisse (Remastered)
DR9 -5.35 dB -16.26 dB 2:45 23-El Palo (Remastered)
––––––––––––––––––––––––––––––––––––––––

Number of tracks: 23
Official DR value: DR10

Samplerate: 44100 Hz
Channels: 2
Bits per sample: 24
Bitrate: 1579 kbps
Codec: FLAC
================================================================================


All thanks go to the original releaser