Subcategories

Alice Cooper - Paranormal (2017) [Vinyl Rip 16/44 & mp3-320]

Posted By: v3122
Alice Cooper - Paranormal (2017) [Vinyl Rip 16/44 & mp3-320]

Alice Cooper - Paranormal (2017)
Vinyl Rip 16/44 | Flac(Image + Cue) > 262 Mb
MP3 CBR 320Kbps > 195 Mb | Artwork(jpg) > 59 Mb
Ear Music | Hard Rock / Classic Rock

Alice Cooper made headlines recently when he unearthed a priceless Andy Warhol print in a storage unit, forgotten since the heady days of socialising with the pop-art icon. Whether or not it was a PR stunt for his 27th studio release, it reminded the world that the gravel-tongued shock-rocker can be relied on to bring some rock’n’roll weirdness to proceedings. That’s what the bonus disc of Paranormal shows, too, featuring exuberant live recordings of his greatest hits including School’s Out and No More Mr Nice Guy. Meanwhile, the album itself – which features the likes of ZZ Top’s Billy Gibbons and U2’s Larry Mullen alongside some original bandmates – is proof that he’s still giving it his best shot. The title track boasts flashy prog metal flourishes and menacing lyrics about “cool skin and bones”; there’s a sense of sheer urgency in Cooper’s voice as he describes an apocalyptic city scene on Fireball; Genuine American Girl dabbles in smart gender politics and Fallen in Love is a tight throwback to classic blues laments. However, more shiny than screwball, it doesn’t offer the same treasure you might well find lurking in Cooper’s attic.

~ theguardian.com
Alice Cooper - Paranormal (2017) [Vinyl Rip 16/44 & mp3-320]


Alice Cooper - Paranormal (2017):

Tracklist:

01 Paranormal 4:10
02 Dead Flies 2:24
03 Fireball 4:49
04 Paranoiac Personality 3:10
05 Fallen In Love 3:36
06 Dynamite Road 2:44
07 Private Public Breakdown 3:27
08 Holy Water 3:08
09 Rats 2:40
10 You And All Your Friends 2:42
11 Genuine American Girl 4:27
12 The Sound Of A 4:09

foobar2000 1.2.9 / Dynamic Range Meter 1.1.1
log date: 2017-07-29 08:05:20

––––––––––––––––––––––––––––––––––––––––
Analyzed: Alice Cooper / Paranormal 45RPM
––––––––––––––––––––––––––––––––––––––––

DR Peak RMS Duration Track
––––––––––––––––––––––––––––––––––––––––
DR11 -2.96 dB -16.95 dB 4:10 01-Paranormal
DR12 -2.94 dB -16.73 dB 2:24 02-Dead Flies
DR11 -3.75 dB -16.34 dB 4:49 03-Fireball
DR13 -1.70 dB -16.12 dB 3:10 04-Paranoiac Personality
DR12 -2.05 dB -16.10 dB 3:36 05-Fallen In Love
DR13 -1.76 dB -16.13 dB 23:17 06-Dynamite Road
DR11 -2.96 dB -16.41 dB 3:27 07-Private Public Breakdown
DR12 -2.94 dB -17.36 dB 3:08 08-Holy Water
DR11 -3.90 dB -16.04 dB 2:40 09-Rats
DR12 -3.34 dB -17.16 dB 2:42 10-You And All Your Friends
DR13 -1.70 dB -15.59 dB 4:27 11-Genuine American Girl
DR13 -1.76 dB -16.15 dB 25:02 12-The Sound Of A
––––––––––––––––––––––––––––––––––––––––

Number of tracks: 12
Official DR value: DR12

Samplerate: 44100 Hz
Channels: 2
Bits per sample: 16
Bitrate: 859 kbps
Codec: FLAC


Original ripper: bazar
Original format: 32/192
Vinyl Condition: mint
Cleaning:
Direct Drive Turntable: Technics SL1200MK5
Cartridge: Lyra Skala
Amplifier: Whest 40RDT SE
ADC: Lynx Hilo
Postprocessing:

Downsampled to 16/44 by v3122

Alice Cooper - Paranormal (2017) [Vinyl Rip 16/44 & mp3-320]



Alice Cooper in my Blog

Download Alice Cooper - Paranormal (2017):