Subcategories

Rainbow: Discography (1975 - 1986) [Vinyl Rip 16/44 & mp3-320]

Posted By: v3122
Rainbow: Discography (1975 - 1986) [Vinyl Rip 16/44 & mp3-320]

Rainbow: Discography (1975 - 1986) [Vinyl Rip 16/44 & mp3-320]
9 x Vinyl Rip 16/44 | Flac(Image + Cue) > 2658 Mb
MP3 CBR 320Kbps > 984 Mb | Artwork > 925 Mb
Hard Rock / Classic Rock

Rainbow (also known as Ritchie Blackmore's Rainbow or Blackmore's Rainbow) are a British rock band led by guitarist Ritchie Blackmore. Estabilished in 1975.

By 1973, Blackmore had steered Deep Purple through a significant personnel change, with Ian Gillan and Roger Glover being replaced by David Coverdale and Glenn Hughes. However, the new members were keen to add new musical styles and Blackmore found his request to record the Steve Hammond-penned "Black Sheep of the Family" with "Sixteenth Century Greensleeves" turned down by the band. He decided to record the song with Ronnie James Dio instead, using Dio's band ELF (3) as additional musicians. He enjoyed the results, and a full album, billed as Ritchie Blackmore's Rainbow was recorded between February and March 1975 at Musicland Studios in Munich, Germany. The band name was inspired by the Rainbow Bar and Grill in Hollywood.

After the release of three studio albums and an extensive world tour in 1977–78, Blackmore decided that he wanted to take the band in a new commercial direction away from the "sword and sorcery" theme. Dio did not agree with this change and left Rainbow. Together with then new vocalist Graham Bonnet, Blackmore scored a hit single with “Since You Been Gone”.

After more lineup changes and albums, Ritchie disbanded Rainbow in early 1984 to rejoin the reunited Deep Purple.

He resurrected Rainbow once again in early 1994, just after leaving Deep Purple for good. However, Blackmore turned his attention to his long-time musical passion, Renaissance and medieval music. Rainbow was put on hold once again after playing its final concert in Esbjerg, Denmark in 1997. Blackmore, together with his partner Candice Night as vocalist then formed the Renaissance-influenced Blackmore's Night.

Against all expectations, Blackmore reformed Rainbow, with an all-new line-up, in late 2015. Blackmore announced that he would play "all rock" concerts in the summer of 2016 under the banner of 'Ritchie Blackmore's Rainbow', his first rock shows since 1997. The new Rainbow line-up was announced on November 6, 2015. It featured Lords Of Black singer Ronnie Romero, Stratovarius keyboardist Jens Johansson, Blackmore’s Night drummer David Keith and bassist Bob Nouveau (Bob Curiano).

~ discogs
Rainbow: Discography (1975 - 1986) [Vinyl Rip 16/44 & mp3-320]


Rainbow: Discography (1975 - 1986) [Vinyl Rip 16/44 & mp3-320]:

Rainbow: Discography (1975 - 1986) [Vinyl Rip 16/44 & mp3-320]

Tracklist VNL01 - Ritchie Blackmore's Rainbow:
US LP 1975 Polydor Records Inc., PD 6049

01. A1. Man On The Silver Mountain [04:43]
02. A2. Self Portrait [03:17]
03. A3. Black Sheep Of The Family [03:22]
04. A4. Catch The Rainbow [06:40]
05. B1. Snake Charmer [04:33]
06. B2. The Temple Of The King [04:45]
07. B3. If You Don't Like Rock N' Roll [02:38]
08. B4. Sixteenth Century Greensleeves [03:31]
09. B5. Still I'm Sad [03:56]

foobar2000 1.2.9 / Dynamic Range Meter 1.1.1
log date: 2017-04-26 07:41:43

––––––––––––––––––––––––––––––––––––––––
Analyzed: RAINBOW / Ritchie Blackmore's Rainbow (USA, PD 6049)
––––––––––––––––––––––––––––––––––––––––

DR Peak RMS Duration Track
––––––––––––––––––––––––––––––––––––––––
DR13 -0.58 dB -15.75 dB 4:43 01-A1. Man On The Silver Mountain
DR12 -1.11 dB -16.23 dB 3:17 02-A2. Self Portrait
DR12 -1.72 dB -15.86 dB 3:22 03-A3. Black Sheep Of The Family
DR14 -2.00 dB -18.86 dB 6:40 04-A4. Catch The Rainbow
DR11 -0.13 dB -13.72 dB 4:33 05-B1. Snake Charmer
DR12 -1.70 dB -17.24 dB 4:45 06-B2. The Temple Of The King
DR12 -1.29 dB -14.91 dB 2:38 07-B3. If You Don't Like Rock N' Roll
DR13 -1.06 dB -16.71 dB 3:31 08-B4. Sixteenth Century Greensleeves
DR12 -3.33 dB -17.16 dB 3:56 09-B5. Still I'm Sad
––––––––––––––––––––––––––––––––––––––––

Number of tracks: 9
Official DR value: DR12

Samplerate: 44100 Hz
Channels: 2
Bits per sample: 16
Bitrate: 826 kbps
Codec: FLAC

Rainbow: Discography (1975 - 1986) [Vinyl Rip 16/44 & mp3-320]

Tracklist VNL02 - Rainbow Rising:
JP LP 1976 Polydor K.K., Tokyo, MWF 1004

01. A1. Tarot Woman [06:07]
02. A2. Run With The Wolf [03:44]
03. A3. Starstruck [04:09]
04. A4. Do You Close Your Eyes [03:01]
05. B1. Stargazer [08:32]
06. B2. A Light In The Black [08:16]

foobar2000 1.2.9 / Dynamic Range Meter 1.1.1
log date: 2017-04-26 07:41:57

––––––––––––––––––––––––––––––––––––––––
Analyzed: RAINBOW / Rising (Japan, MWF 1004)
––––––––––––––––––––––––––––––––––––––––

DR Peak RMS Duration Track
––––––––––––––––––––––––––––––––––––––––
DR12 -0.93 dB -15.59 dB 6:06 01-A1. Tarot Woman
DR12 -0.94 dB -15.29 dB 3:43 02-A2. Run With The Wolf
DR12 -0.87 dB -15.17 dB 4:09 03-A3. Starstruck
DR12 -0.91 dB -14.44 dB 3:01 04-A4. Do You Close Your Eyes
DR11 -1.06 dB -14.49 dB 8:31 05-B1. Stargazer
DR12 -0.99 dB -14.78 dB 8:16 06-B2. A Light In The Black
––––––––––––––––––––––––––––––––––––––––

Number of tracks: 6
Official DR value: DR12

Samplerate: 44100 Hz
Channels: 2
Bits per sample: 16
Bitrate: 934 kbps
Codec: FLAC

Rainbow: Discography (1975 - 1986) [Vinyl Rip 16/44 & mp3-320]

Tracklist VNL03 - On Stage:
JP 2 x LP 1977 Polydor K.K., MWZ 8103-4

01. A1. Kill The King [05:27]
02. A2. Man On The Silver Mountain / Blues / Starstruck [11:16]
03. B1. Catch The Rainbow [15:33]
04. C1. Mistreated [13:02]
05. D1. Sixteenth Century Greensleeves [07:35]
06. D2. Still I'm Sad [11:01]

foobar2000 1.2.9 / Dynamic Range Meter 1.1.1
log date: 2017-04-26 07:42:14

––––––––––––––––––––––––––––––––––––––––
Analyzed: RAINBOW / On Stage (Japan, MWZ 8103/4)
––––––––––––––––––––––––––––––––––––––––

DR Peak RMS Duration Track
––––––––––––––––––––––––––––––––––––––––
DR12 -0.13 dB -14.53 dB 5:27 01-A1. Kill The King
DR13 -0.25 dB -16.51 dB 11:16 02-A2. Man On The Silver Mountain / Blues / Starstruck
DR12 -0.18 dB -16.86 dB 15:34 03-B1. Catch The Rainbow
DR12 -0.07 dB -16.25 dB 13:02 04-C1. Mistreated
DR12 -0.11 dB -15.07 dB 7:35 05-D1. Sixteenth Century Greensleeves
DR12 -0.37 dB -15.24 dB 11:02 06-D2. Still I'm Sad
––––––––––––––––––––––––––––––––––––––––

Number of tracks: 6
Official DR value: DR12

Samplerate: 44100 Hz
Channels: 2
Bits per sample: 16
Bitrate: 815 kbps
Codec: FLAC

Rainbow: Discography (1975 - 1986) [Vinyl Rip 16/44 & mp3-320]

Tracklist VNL04 - Long Live Rock 'N' Roll:
JP LP 1978 Polydor K.K., MPF 1156

01. A1. Long Live Rock'n'Roll [04:25]
02. A2. Lady Of The Lake [03:38]
03. A3. L.A. Connection [05:01]
04. A4. Gates Of Babylon [06:49]
05. B1. Kill The King [04:30]
06. B2. The Shed (Subtle) [04:48]
07. B3. Sensitive To Light [03:08]
08. B4. Rainbow Eyes [07:23]

foobar2000 1.2.9 / Dynamic Range Meter 1.1.1
log date: 2017-04-26 07:42:31

––––––––––––––––––––––––––––––––––––––––
Analyzed: RAINBOW / Long Live Rock 'N' Roll (Japan, MPF 1156)
––––––––––––––––––––––––––––––––––––––––

DR Peak RMS Duration Track
––––––––––––––––––––––––––––––––––––––––
DR11 -0.94 dB -13.57 dB 4:24 01-A1. Long Live Rock'n'Roll
DR11 -0.96 dB -13.65 dB 3:37 02-A2. Lady Of The Lake
DR11 -1.40 dB -15.59 dB 5:00 03-A3. L.A. Connection
DR11 -0.94 dB -14.77 dB 6:48 04-A4. Gates Of Babylon
DR11 -0.98 dB -13.45 dB 4:29 05-B1. Kill The King
DR11 -0.93 dB -14.74 dB 4:47 06-B2. The Shed (Subtle)
DR11 -1.31 dB -13.95 dB 3:07 07-B3. Sensitive To Light
DR11 -2.28 dB -19.62 dB 7:23 08-B4. Rainbow Eyes
––––––––––––––––––––––––––––––––––––––––

Number of tracks: 8
Official DR value: DR11

Samplerate: 44100 Hz
Channels: 2
Bits per sample: 16
Bitrate: 831 kbps
Codec: FLAC

Rainbow: Discography (1975 - 1986) [Vinyl Rip 16/44 & mp3-320]

Tracklist VNL05 - Down To Earth (1979):
JP LP 1982 Polydor K.K., 20MM 9230

01. A1. All Night Long [03:54]
02. A2. Eyes Of The World [06:43]
03. A3. No Time To Lose [03:46]
04. A4. Makin' Love [04:38]
05. B1. Since You Been Gone [03:21]
06. B2. Love's No Friend [04:56]
07. B3. Danger Zone [04:32]
08. B4. Lost In Hollywood [04:56]

foobar2000 1.2.9 / Dynamic Range Meter 1.1.1
log date: 2017-04-26 07:42:42

––––––––––––––––––––––––––––––––––––––––
Analyzed: RAINBOW / Down To Earth (Japan, 20MM 9230)
––––––––––––––––––––––––––––––––––––––––

DR Peak RMS Duration Track
––––––––––––––––––––––––––––––––––––––––
DR12 -0.91 dB -14.55 dB 3:54 01-A1. All Night Long
DR11 -0.95 dB -14.45 dB 6:42 02-A2. Eyes Of The World
DR11 -1.06 dB -13.87 dB 3:46 03-A3. No Time To Lose
DR11 -1.19 dB -15.20 dB 4:37 04-A4. Makin' Love
DR13 -0.91 dB -16.01 dB 3:21 05-B1. Since You Been Gone
DR12 -1.08 dB -15.43 dB 4:55 06-B2. Love's No Friend
DR11 -1.06 dB -14.77 dB 4:32 07-B3. Danger Zone
DR11 -1.19 dB -14.90 dB 4:55 08-B4. Lost In Hollywood
––––––––––––––––––––––––––––––––––––––––

Number of tracks: 8
Official DR value: DR12

Samplerate: 44100 Hz
Channels: 2
Bits per sample: 16
Bitrate: 918 kbps
Codec: FLAC

Rainbow: Discography (1975 - 1986) [Vinyl Rip 16/44 & mp3-320]

Tracklist VNL06 - Difficult To Cure:
US LP 1981 Polydor Records Inc., PD-1-6316

01. A1. I Surrender [04:06]
02. A2. Spotlight Kid [04:57]
03. A3. No Release [05:37]
04. A4. Magic [04:09]
05. A5. Vielleicht Das Nachster Zeit (Maybe Next Time) [03:18]
06. B1. Can't Happen Here [05:01]
07. B2. Freedom Fighter [04:22]
08. B3. Midtown Tunnel Vision [04:34]
09. B4. Difficult To Cure (Beethoven's Ninth) [05:50]

foobar2000 1.2.9 / Dynamic Range Meter 1.1.1
log date: 2017-04-26 07:42:57

––––––––––––––––––––––––––––––––––––––––
Analyzed: RAINBOW / Difficult To Cure (USA, PD-1-6316)
––––––––––––––––––––––––––––––––––––––––

DR Peak RMS Duration Track
––––––––––––––––––––––––––––––––––––––––
DR11 -0.87 dB -14.41 dB 4:06 01-A1. I Surrender
DR12 -0.09 dB -14.44 dB 4:57 02-A2. Spotlight Kid
DR12 -0.86 dB -15.60 dB 5:37 03-A3. No Release
DR12 -0.59 dB -15.15 dB 4:08 04-A4. Magic
DR12 -3.13 dB -18.16 dB 3:18 05-A5. Vielleicht Das Nachster Zeit (Maybe Next Time)
DR12 -0.04 dB -14.59 dB 5:01 06-B1. Can't Happen Here
DR12 -1.67 dB -14.76 dB 4:22 07-B2. Freedom Fighter
DR11 -1.34 dB -15.88 dB 4:34 08-B3. Midtown Tunnel Vision
DR13 -1.94 dB -17.05 dB 5:50 09-B4. Difficult To Cure (Beethoven's Ninth)
––––––––––––––––––––––––––––––––––––––––

Number of tracks: 9
Official DR value: DR12

Samplerate: 44100 Hz
Channels: 2
Bits per sample: 16
Bitrate: 924 kbps
Codec: FLAC

Rainbow: Discography (1975 - 1986) [Vinyl Rip 16/44 & mp3-320]

Tracklist VNL07 - Straight Between The Eyes:
JP LP 1982 Polydor K.K., 28MM 0152

01. A1. Death Alley Driver [04:46]
02. A2. Stone Cold [05:20]
03. A3. Bring On The Night (Dream Chaser) [04:08]
04. A4. Tite Squeeze [03:16]
05. A5. Tearin' Out My Heart [04:04]
06. B1. Power [04:28]
07. B2. Miss Mistreated [04:31]
08. B3. Rock Fever [03:53]
09. B4. Eyes Of Fire [06:42]

foobar2000 1.2.9 / Dynamic Range Meter 1.1.1
log date: 2017-04-26 07:43:09

––––––––––––––––––––––––––––––––––––––––
Analyzed: RAINBOW / Straight Between The Eyes (Japan, 28MM 0152)
––––––––––––––––––––––––––––––––––––––––

DR Peak RMS Duration Track
––––––––––––––––––––––––––––––––––––––––
DR12 -1.25 dB -14.41 dB 4:46 01-A1. Death Alley Driver
DR12 -0.94 dB -15.36 dB 5:19 02-A2. Stone Cold
DR11 -0.92 dB -14.35 dB 4:07 03-A3. Bring On The Night (Dream Chaser)
DR12 -1.29 dB -14.27 dB 3:16 04-A4. Tite Squeeze
DR12 -1.50 dB -16.49 dB 4:04 05-A5. Tearin' Out My Heart
DR12 -0.91 dB -15.82 dB 4:28 06-B1. Power
DR12 -1.50 dB -15.41 dB 4:30 07-B2. Miss Mistreated
DR11 -1.34 dB -14.30 dB 3:53 08-B3. Rock Fever
DR11 -1.87 dB -15.09 dB 6:41 09-B4. Eyes Of Fire
––––––––––––––––––––––––––––––––––––––––

Number of tracks: 9
Official DR value: DR12

Samplerate: 44100 Hz
Channels: 2
Bits per sample: 16
Bitrate: 879 kbps
Codec: FLAC

Rainbow: Discography (1975 - 1986) [Vinyl Rip 16/44 & mp3-320]

Tracklist VNL08 - Bent Out Of Shape:
JP LP 1983 Polydor K.K., 28MM 0300 Promo

01. A1. Stranded [04:31]
02. A2. Can't Let You Go [04:21]
03. A3. Fool For The Night [04:05]
04. A4. Fire Dance [04:31]
05. A5. Anybody There [02:41]
06. B1. Desperate Heart [04:03]
07. B2. Street Of Dreams [04:27]
08. B3. Drinking With The Devil [03:48]
09. B4. Snowman [04:29]
10. B5. Make Your Move [03:57]

foobar2000 1.2.9 / Dynamic Range Meter 1.1.1
log date: 2017-04-26 07:43:23

––––––––––––––––––––––––––––––––––––––––
Analyzed: RAINBOW / Bent Out Of Shape (Japan, Promo)
––––––––––––––––––––––––––––––––––––––––

DR Peak RMS Duration Track
––––––––––––––––––––––––––––––––––––––––
DR15 -0.28 dB -16.99 dB 4:31 01-A1. Stranded
DR12 -3.08 dB -17.08 dB 4:20 02-A2. Can't Let You Go
DR12 -1.98 dB -15.73 dB 4:04 03-A3. Fool For The Night
DR12 -2.57 dB -16.40 dB 4:30 04-A4. Fire Dance
DR11 -4.38 dB -17.78 dB 2:41 05-A5. Anybody There
DR13 -1.83 dB -17.25 dB 4:03 06-B1. Desperate Heart
DR12 -2.32 dB -16.33 dB 4:27 07-B2. Street Of Dreams
DR12 -1.96 dB -15.76 dB 3:47 08-B3. Drinking With The Devil
DR11 -5.44 dB -19.65 dB 4:29 09-B4. Snowman
DR13 -2.66 dB -17.38 dB 3:57 10-B5. Make Your Move
––––––––––––––––––––––––––––––––––––––––

Number of tracks: 10
Official DR value: DR12

Samplerate: 44100 Hz
Channels: 2
Bits per sample: 16
Bitrate: 863 kbps
Codec: FLAC

Rainbow: Discography (1975 - 1986) [Vinyl Rip 16/44 & mp3-320]

Tracklist VNL09 - Finyl Vinyl:
DE 2 x LP 1986 PolyGram Records GmbH, 827 987-1Y

01. A1. Spotlight Kid [06:05]
02. A2. I Surrender [05:44]
03. A3. Miss Mistreated [04:22]
04. B1. Jealous Lover [03:14]
05. B2. Can't Happen Here [04:16]
06. B3. Tearin' Out My Heart [08:08]
07. B4. Since You Been Gone [03:48]
08. B5. Bad Girl [04:51]
09. C1. Difficult To Cure [11:18]
10. C2. I Stone Cold [04:28]
11. C3. Power [04:25]
12. D1. Man On The Silver Mountain [08:19]
13. D2. Long Live Rock 'N' Roll [07:13]
14. D3. Weiss Heim [05:12]

foobar2000 1.2.9 / Dynamic Range Meter 1.1.1
log date: 2017-04-26 07:43:42

––––––––––––––––––––––––––––––––––––––––
Analyzed: RAINBOW / Finyl Vinyl (Germany, 827 987-1Y)
––––––––––––––––––––––––––––––––––––––––

DR Peak RMS Duration Track
––––––––––––––––––––––––––––––––––––––––
DR12 -1.14 dB -15.90 dB 6:04 01-A1. Spotlight Kid
DR12 -0.71 dB -13.81 dB 5:43 02-A2. I Surrender
DR13 -0.71 dB -16.05 dB 4:21 03-A3. Miss Mistreated
DR12 -3.63 dB -18.10 dB 3:13 04-B1. Jealous Lover
DR11 -4.59 dB -18.00 dB 4:16 05-B2. Can't Happen Here
DR13 -2.14 dB -18.43 dB 8:08 06-B3. Tearin' Out My Heart
DR13 -2.27 dB -17.28 dB 3:47 07-B4. Since You Been Gone
DR11 -3.29 dB -16.92 dB 4:51 08-B5. Bad Girl
DR11 -2.47 dB -17.28 dB 11:18 09-C1. Difficult To Cure
DR12 -1.72 dB -18.13 dB 4:28 10-C2. I Stone Cold
DR12 -2.49 dB -16.76 dB 4:25 11-C3. Power
DR13 -2.83 dB -18.89 dB 8:18 12-D1. Man On The Silver Mountain
DR13 -1.93 dB -17.62 dB 7:12 13-D2. Long Live Rock 'N' Roll
DR12 -7.95 dB -23.03 dB 5:12 14-D3. Weiss Heim
––––––––––––––––––––––––––––––––––––––––

Number of tracks: 14
Official DR value: DR12

Samplerate: 44100 Hz
Channels: 2
Bits per sample: 16
Bitrate: 854 kbps
Codec: FLAC

All thanks go to bazar, Oleg-Leshiy, roma ltd, alvaedis, JonnyB, o-jack & KoGGaN


Rainbow in my Blog

Download Rainbow: Discography (1975 - 1986) [Vinyl Rip 16/44 & mp3-320]: