American Horror Story S08E09

Posted By: Tavaz
1080p (FullHD) / WEB-DL IMDb
American Horror Story S08E09

American Horror Story S08E09
WEB-DL | MKV | 1920x1080 | Italian / English | H264 @ 6664 kbps | AC-3 @ 384 kbps | 36 min 41 s | 1.91 GiB
Subtitles: English, Italian
Genre: Drama, Mystery

An anthology horror drama series centering on different characters and locations, including a house with a murderous past, an asylum, a witch coven, a freak show, a hotel, a farmhouse in Roanoke and a cult.

American.Horror.Story.8x09.Infiamma.E.Comanda.ITA-ENG.1080p.WEBMux.DD5.1.x264-NovaRip.mkv (1.9 GB)



General
Unique ID : 179502685085954918760611180426373639421 (0x870AF5AA58196A34FD9A7D9D944C2CFD)
Complete name : ./American.Horror.Story.8x09.Infiamma.E.Comanda.ITA-ENG.1080p.WEBMux.DD5.1.x264-NovaRip.mkv
Format : Matroska
Format version : Version 2
File size : 1.91 GiB
Duration : 36 min 41 s
Overall bit rate : 7 435 kb/s
Encoded date : UTC 2019-01-06 08:06:41
Writing application : mkvmerge v8.5.2 ('Crosses') 64bit
Writing library : libebml v1.3.3 + libmatroska v1.4.4

Video
ID : 1
Format : AVC
Format/Info : Advanced Video Codec
Format profile : High@L4
Format settings : CABAC / 4 Ref Frames
Format settings, CABAC : Yes
Format settings, RefFrames : 4 frames
Codec ID : V_MPEG4/ISO/AVC
Duration : 36 min 41 s
Bit rate : 6 665 kb/s
Width : 1 920 pixels
Height : 1 080 pixels
Display aspect ratio : 16:9
Frame rate mode : Constant
Frame rate : 25.000 FPS
Original frame rate : 23.976 (24000/1001) FPS
Color space : YUV
Chroma subsampling : 4:2:0
Bit depth : 8 bits
Scan type : Progressive
Bits/(Pixel*Frame) : 0.129
Stream size : 1.71 GiB (90%)
Language : English
Default : Yes
Forced : Yes
Color range : Limited
Color primaries : BT.709
Transfer characteristics : BT.709
Matrix coefficients : BT.709

Audio #1
ID : 2
Format : AC-3
Format/Info : Audio Coding 3
Format settings, Endianness : Big
Codec ID : A_AC3
Duration : 36 min 41 s
Bit rate mode : Constant
Bit rate : 384 kb/s
Channel(s) : 6 channels
Channel positions : Front: L C R, Side: L R, LFE
Sampling rate : 48.0 kHz
Frame rate : 31.250 FPS (1536 SPF)
Bit depth : 16 bits
Compression mode : Lossy
Stream size : 101 MiB (5%)
Title : ITA
Language : Italian
Service kind : Complete Main
Default : Yes
Forced : Yes

Audio #2
ID : 3
Format : AC-3
Format/Info : Audio Coding 3
Format settings, Endianness : Big
Codec ID : A_AC3
Duration : 36 min 41 s
Bit rate mode : Constant
Bit rate : 384 kb/s
Channel(s) : 6 channels
Channel positions : Front: L C R, Side: L R, LFE
Sampling rate : 48.0 kHz
Frame rate : 31.250 FPS (1536 SPF)
Bit depth : 16 bits
Compression mode : Lossy
Stream size : 101 MiB (5%)
Title : ENG
Language : English
Service kind : Complete Main
Default : No
Forced : No

Text #1
ID : 4
Format : UTF-8
Codec ID : S_TEXT/UTF8
Codec ID/Info : UTF-8 Plain Text
Duration : 5 min 44 s
Bit rate : 17 b/s
Count of elements : 24
Stream size : 732 Bytes (0%)
Title : ITA - Forced
Language : Italian
Default : Yes
Forced : Yes

Text #2
ID : 5
Format : UTF-8
Codec ID : S_TEXT/UTF8
Codec ID/Info : UTF-8 Plain Text
Duration : 35 min 35 s
Bit rate : 80 b/s
Count of elements : 592
Stream size : 21.1 KiB (0%)
Title : ITA
Language : Italian
Default : No
Forced : No

Text #3
ID : 6
Format : UTF-8
Codec ID : S_TEXT/UTF8
Codec ID/Info : UTF-8 Plain Text
Duration : 36 min 2 s
Bit rate : 78 b/s
Count of elements : 651
Stream size : 20.8 KiB (0%)
Title : ENG
Language : English
Default : No
Forced : No





American Horror Story S08E09


American Horror Story S08E09


American Horror Story S08E09


American Horror Story S08E09


American Horror Story S08E09

All episodes