American Horror Story S08E08

Posted By: Tavaz
SD / WEB-DL IMDb
American Horror Story  S08E08

American Horror Story S08E08
WEB-DL | MKV | 720x404 | Italian | H264 @ 761 kbps | AAC @ 111 kbps | 36 min 6 s | 226 MiB
Subtitles: Italian
Genre: Dramma, Mistero

American Horror Story è una serie televisiva statunitense di genere horror trasmessa dal 5 ottobre 2011 sulla rete via cavo FX.

Richiamando caratteristiche delle serie antologiche, la fiction venne concepita in modo che ogni stagione avesse trama, ambientazione e personaggi diversi. Al suo debutto, la serie raccolse un'accoglienza mediamente positiva dalla critica e un ottimo riscontro di pubblico; la première risultò la più vista di sempre sulla rete FX. In Italia il primo episodio è stato distribuito dal 31 ottobre 2011 sul sito internet di Fox, canale televisivo della piattaforma pay satellitare Sky, che trasmette la serie dall'8 novembre 2011

American.Horror.Story.8x08.Soggiorno.ITA.WEBMux.x264-NovaRip.mkv (226.2 MB)



General
Unique ID : 22592323667490455534635059532452979514 (0x10FF1F8E63DF050DC03DE34AEE0DE33A)
Complete name : ./American.Horror.Story.8x08.Soggiorno.ITA.WEBMux.x264-NovaRip.mkv
Format : Matroska
Format version : Version 2
File size : 226 MiB
Duration : 36 min 6 s
Overall bit rate : 876 kb/s
Encoded date : UTC 2018-12-30 09:35:30
Writing application : mkvmerge v8.5.2 ('Crosses') 64bit
Writing library : libebml v1.3.3 + libmatroska v1.4.4

Video
ID : 1
Format : AVC
Format/Info : Advanced Video Codec
Format profile : High@L3.1
Format settings : CABAC / 6 Ref Frames
Format settings, CABAC : Yes
Format settings, RefFrames : 6 frames
Codec ID : V_MPEG4/ISO/AVC
Duration : 36 min 6 s
Bit rate : 762 kb/s
Width : 720 pixels
Height : 404 pixels
Display aspect ratio : 16:9
Frame rate mode : Constant
Frame rate : 25.000 FPS
Original frame rate : 23.976 (24000/1001) FPS
Color space : YUV
Chroma subsampling : 4:2:0
Bit depth : 8 bits
Scan type : Progressive
Bits/(Pixel*Frame) : 0.105
Stream size : 197 MiB (87%)
Writing library : x264 core 155 r2901 7d0ff22
Encoding settings : cabac=1 / ref=6 / deblock=1:-2:-2 / analyse=0x3:0x133 / me=umh / subme=7 / psy=1 / psy_rd=1.00:0.00 / mixed_ref=1 / me_range=16 / chroma_me=1 / trellis=2 / 8x8dct=1 / cqm=0 / deadzone=21,11 / fast_pskip=0 / chroma_qp_offset=-2 / threads=6 / lookahead_threads=1 / sliced_threads=0 / nr=0 / decimate=1 / interlaced=0 / bluray_compat=0 / constrained_intra=0 / bframes=5 / b_pyramid=2 / b_adapt=2 / b_bias=0 / direct=3 / weightb=1 / open_gop=0 / weightp=2 / keyint=250 / keyint_min=23 / scenecut=40 / intra_refresh=0 / rc_lookahead=40 / rc=crf / mbtree=1 / crf=19.0 / qcomp=0.60 / qpmin=0 / qpmax=69 / qpstep=4 / ip_ratio=1.40 / aq=1:1.00
Language : English
Default : Yes
Forced : Yes

Audio
ID : 2
Format : AAC
Format/Info : Advanced Audio Codec
Format profile : LC
Codec ID : A_AAC-2
Duration : 36 min 5 s
Bit rate : 112 kb/s
Channel(s) : 2 channels
Channel positions : Front: L R
Sampling rate : 48.0 kHz
Frame rate : 46.875 FPS (1024 SPF)
Compression mode : Lossy
Delay relative to video : 9 ms
Stream size : 28.8 MiB (13%)
Title : ITA
Language : Italian
Default : Yes
Forced : Yes

Text
ID : 3
Format : UTF-8
Codec ID : S_TEXT/UTF8
Codec ID/Info : UTF-8 Plain Text
Duration : 2 s 602 ms
Bit rate : 79 b/s
Count of elements : 1
Stream size : 26.0 Bytes (0%)
Title : ITA - Forced
Language : Italian
Default : Yes
Forced : Yes





American Horror Story  S08E08


American Horror Story 			  		   	  			  	  		  		  	 			   		  		  		  	   	 			   			     		 			  	 			   		   	  		  		  		  					  S08E08


American Horror Story  S08E08


American Horror Story  S08E08


American Horror Story  S08E08

All episodes