American Horror Story S08E08

Posted By: Tavaz
1080p (FullHD) / WEB-DL IMDb
American Horror Story S08E08

American Horror Story S08E08
WEB-DL | MKV | 1920x1080 | Italian / English | H264 @ 5521 kbps | AC-3 @ 384 kbps | 36 min 6 s | 1.59 GiB
Subtitles: English, Italian
Genre: Drama, Mystery

An anthology horror drama series centering on different characters and locations, including a house with a murderous past, an asylum, a witch coven, a freak show, a hotel, a farmhouse in Roanoke and a cult.

American.Horror.Story.8x08.Soggiorno.ITA-ENG.1080p.WEBMux.DD5.1.x264-NovaRip.mkv (1.6 GB)



General
Unique ID : 100588402055227536317745282802509812779 (0x4BAC9F1E667D5765DF4DF45F1DA2142B)
Complete name : ./American.Horror.Story.8x08.Soggiorno.ITA-ENG.1080p.WEBMux.DD5.1.x264-NovaRip.mkv
Format : Matroska
Format version : Version 2
File size : 1.59 GiB
Duration : 36 min 6 s
Overall bit rate : 6 291 kb/s
Encoded date : UTC 2018-12-30 09:35:05
Writing application : mkvmerge v8.5.2 ('Crosses') 64bit
Writing library : libebml v1.3.3 + libmatroska v1.4.4

Video
ID : 1
Format : AVC
Format/Info : Advanced Video Codec
Format profile : High@L4
Format settings : CABAC / 4 Ref Frames
Format settings, CABAC : Yes
Format settings, RefFrames : 4 frames
Codec ID : V_MPEG4/ISO/AVC
Duration : 36 min 6 s
Bit rate : 5 521 kb/s
Width : 1 920 pixels
Height : 1 080 pixels
Display aspect ratio : 16:9
Frame rate mode : Constant
Frame rate : 25.000 FPS
Original frame rate : 23.976 (24000/1001) FPS
Color space : YUV
Chroma subsampling : 4:2:0
Bit depth : 8 bits
Scan type : Progressive
Bits/(Pixel*Frame) : 0.107
Stream size : 1.39 GiB (88%)
Language : English
Default : Yes
Forced : Yes
Color range : Limited
Color primaries : BT.709
Transfer characteristics : BT.709
Matrix coefficients : BT.709

Audio #1
ID : 2
Format : AC-3
Format/Info : Audio Coding 3
Format settings, Endianness : Big
Codec ID : A_AC3
Duration : 36 min 5 s
Bit rate mode : Constant
Bit rate : 384 kb/s
Channel(s) : 6 channels
Channel positions : Front: L C R, Side: L R, LFE
Sampling rate : 48.0 kHz
Frame rate : 31.250 FPS (1536 SPF)
Bit depth : 16 bits
Compression mode : Lossy
Stream size : 99.1 MiB (6%)
Title : ITA
Language : Italian
Service kind : Complete Main
Default : Yes
Forced : Yes

Audio #2
ID : 3
Format : AC-3
Format/Info : Audio Coding 3
Format settings, Endianness : Big
Codec ID : A_AC3
Duration : 36 min 6 s
Bit rate mode : Constant
Bit rate : 384 kb/s
Channel(s) : 6 channels
Channel positions : Front: L C R, Side: L R, LFE
Sampling rate : 48.0 kHz
Frame rate : 31.250 FPS (1536 SPF)
Bit depth : 16 bits
Compression mode : Lossy
Stream size : 99.2 MiB (6%)
Title : ENG
Language : English
Service kind : Complete Main
Default : No
Forced : No

Text #1
ID : 4
Format : UTF-8
Codec ID : S_TEXT/UTF8
Codec ID/Info : UTF-8 Plain Text
Duration : 2 s 602 ms
Bit rate : 79 b/s
Count of elements : 1
Stream size : 26.0 Bytes (0%)
Title : ITA - Forced
Language : Italian
Default : Yes
Forced : Yes

Text #2
ID : 5
Format : UTF-8
Codec ID : S_TEXT/UTF8
Codec ID/Info : UTF-8 Plain Text
Duration : 34 min 28 s
Bit rate : 72 b/s
Count of elements : 558
Stream size : 18.2 KiB (0%)
Title : ITA
Language : Italian
Default : No
Forced : No

Text #3
ID : 6
Format : UTF-8
Codec ID : S_TEXT/UTF8
Codec ID/Info : UTF-8 Plain Text
Duration : 35 min 8 s
Bit rate : 67 b/s
Count of elements : 615
Stream size : 17.4 KiB (0%)
Title : ENG
Language : English
Default : No
Forced : No





American Horror Story S08E08


American Horror Story S08E08


American Horror Story S08E08


American Horror Story S08E08


American Horror Story S08E08

All episodes