True Evil: Making of a Nazi (2018)

Posted By: notbanned
720p (HD) / HDTV
True Evil: Making of a Nazi (2018)

True Evil: Making of a Nazi (2018)
HDTV | 1280x720 | .MKV/AVC @ 3884 Kbps | 6x~47min | 7.42 GiB
Audio: English MP2 192 kbps, 2 channels | Subs: English
Genre: Documentary

This ground breaking series sets out to answer one of the most important questions in history. How did the Nazis end up doing what they did? How did it happen that educated, civilised people were transformed into twisted Nazi monsters? The Nazis cannot be dismissed as mindless thugs. They enjoyed huge support among German academics, students, civil servants and teachers. Their leaders were highly educated, articulate and, on a personal level, polite and charming. They were scientists and doctors and writers. But they will commit acts of unimaginable cruelty, for which they will feel no shame or remorse. Here… is true evil. This shocking and revealing series examines six leading Nazis.
Episodes: Goebbels, Speer, Goering, Eichmann, Himmler, Von Braun.

General
Unique ID : 39119395828692284133395748408462732639 (0x1D6E1F2014FA0A0D612C0AC9EF4CED5F)
Complete name : True.Evil.The.Making.Of.A.Nazi.Part.1.720p.mkv
Format : Matroska
Format version : Version 4 / Version 2
File size : 1.35 GiB
Duration : 47 min 17 s
Overall bit rate : 4 079 kb/s

Video
ID : 1
Format : AVC
Format/Info : Advanced Video Codec
Format profile : High@L4.1
Format settings, CABAC : Yes
Format settings, ReFrames : 5 frames
Codec ID : V_MPEG4/ISO/AVC
Duration : 47 min 17 s
Bit rate : 3 884 kb/s
Width : 1 280 pixels
Height : 720 pixels
Display aspect ratio : 16:9
Frame rate mode : Constant
Frame rate : 25.000 FPS
Color space : YUV
Chroma subsampling : 4:2:0
Bit depth : 8 bits
Scan type : Progressive
Bits/(Pixel*Frame) : 0.169
Stream size : 1.28 GiB (95%)
Writing library : x264 core 157 r2935 545de2f
Encoding settings : cabac=1 / ref=5 / deblock=1:-2:-2 / analyse=0x3:0x113 / me=hex / subme=8 / psy=1 / psy_rd=1.00:0.00 / mixed_ref=1 / me_range=16 / chroma_me=1 / trellis=2 / 8x8dct=1 / cqm=0 / deadzone=21,11 / fast_pskip=1 / chroma_qp_offset=-2 / threads=12 / lookahead_threads=2 / sliced_threads=0 / nr=0 / decimate=1 / interlaced=0 / bluray_compat=0 / constrained_intra=0 / bframes=3 / b_pyramid=2 / b_adapt=1 / b_bias=0 / direct=3 / weightb=1 / open_gop=0 / weightp=2 / keyint=250 / keyint_min=25 / scenecut=40 / intra_refresh=0 / rc_lookahead=50 / rc=crf / mbtree=1 / crf=20.0 / qcomp=0.60 / qpmin=0 / qpmax=69 / qpstep=4 / ip_ratio=1.40 / aq=1:1.00
Language : English
Default : Yes
Forced : No

Audio
ID : 2
Format : MPEG Audio
Format version : Version 1
Format profile : Layer 2
Codec ID : A_MPEG/L2
Codec ID/Hint : MP2
Duration : 47 min 17 s
Bit rate mode : Constant
Bit rate : 192 kb/s
Channel(s) : 2 channels
Sampling rate : 48.0 kHz
Frame rate : 41.667 FPS (1152 spf)
Compression mode : Lossy
Stream size : 64.9 MiB (5%)
Language : English
Default : Yes
Forced : No

Text
ID : 3
Format : UTF-8
Codec ID : S_TEXT/UTF8
Codec ID/Info : UTF-8 Plain Text
Duration : 46 min 41 s
Bit rate : 97 b/s
Count of elements : 750
Stream size : 33.3 KiB (0%)
Language : English
Default : No
Forced : No


Screenshots:

True Evil: Making of a Nazi (2018)

True Evil: Making of a Nazi (2018)

True Evil: Making of a Nazi (2018)

True Evil: Making of a Nazi (2018)